<?xml version="1.0" standalone="no"?>
<!DOCTYPE svg PUBLIC "-//W3C//DTD SVG 1.1//EN" "http://www.w3.org/Graphics/SVG/1.1/DTD/svg11.dtd" >
<svg xmlns="http://www.w3.org/2000/svg">
<metadata>
<json>
{
	"fontFamily": "layers-interface",
	"majorVersion": 1,
	"minorVersion": 2,
	"fontURL": "http://oboxthemes.com",
	"description": "Layers Customizer Interface Icons\nFont generated by IcoMoon.",
	"copyright": "Obox Themes",
	"designerURL": "http://oboxthemes.com",
	"license": "GPL",
	"version": "Version 1.2",
	"fontId": "layers-interface",
	"psName": "layers-interface",
	"subFamily": "Regular",
	"fullName": "layers-interface"
}
</json>
</metadata>
<defs>
<font id="layers-interface" horiz-adv-x="1024">
<font-face units-per-em="1024" ascent="960" descent="-64" />
<missing-glyph horiz-adv-x="1024" />
<glyph unicode="&#x20;" d="" horiz-adv-x="512" />
<glyph unicode="&#xe00d;" d="M864 960c88.364 0 160-71.634 160-160 0-36.020-11.91-69.258-32-96l-64-64-224 224 64 64c26.742 20.090 59.978 32 96 32zM64 224l-64-288 288 64 592 592-224 224-592-592zM715.578 596.422l-448-448-55.156 55.156 448 448 55.156-55.156z" data-tags="pencil, write, edit" />
<glyph unicode="&#xe600;" d="M535.064 72.454c-28.163-5.547-57.274-8.454-87.064-8.454-247.424 0-448 200.576-448 448s200.576 448 448 448c247.424 0 448-200.576 448-448 0-29.79-2.908-58.9-8.454-87.064l-61.65 18.495c4.011 22.249 6.104 45.164 6.104 68.569 0 212.077-171.923 384-384 384s-384-171.923-384-384c0-212.077 171.923-384 384-384 23.404 0 46.32 2.094 68.569 6.104l18.495-61.65zM498.033 195.889c-16.302-2.56-33.013-3.889-50.033-3.889-176.731 0-320 143.269-320 320s143.269 320 320 320c176.731 0 320-143.269 320-320 0-17.021-1.329-33.731-3.889-50.033l-62.021 18.606c1.261 10.299 1.91 20.787 1.91 31.427 0 141.385-114.615 256-256 256s-256-114.615-256-256c0-141.385 114.615-256 256-256 10.64 0 21.128 0.649 31.427 1.91l18.606-62.021zM448 512l170.667-426.667 85.333 85.333 170.667-170.667 85.333 85.333-170.667 170.667 85.333 85.333-426.667 170.667z" data-tags="call-to-action" />
<glyph unicode="&#xe601;" d="M127.62 960h768.76c70.371 0 127.62-57.137 127.62-127.62v-768.76c0-70.371-57.137-127.62-127.62-127.62h-768.76c-70.371 0-127.62 57.137-127.62 127.62v768.76c0 70.371 57.137 127.62 127.62 127.62zM128.438 640c-35.588 0-64.438-29.163-64.438-63.705v-512.589c0-35.184 28.797-63.705 64.438-63.705h767.124c35.588 0 64.438 29.163 64.438 63.705v512.589c0 35.184-28.797 63.705-64.438 63.705h-767.124zM864.3 832c-17.839 0-32.3-14.844-32.3-32 0-17.673 13.698-32 32.3-32h63.4c17.839 0 32.3 14.844 32.3 32 0 17.673-13.698 32-32.3 32h-63.4zM672.3 832c-17.839 0-32.3-14.844-32.3-32 0-17.673 13.698-32 32.3-32h63.4c17.839 0 32.3 14.844 32.3 32 0 17.673-13.698 32-32.3 32h-63.4zM480.3 832c-17.839 0-32.3-14.844-32.3-32 0-17.673 13.698-32 32.3-32h63.4c17.839 0 32.3 14.844 32.3 32 0 17.673-13.698 32-32.3 32h-63.4zM160 704c53.019 0 96 42.981 96 96s-42.981 96-96 96c-53.019 0-96-42.981-96-96s42.981-96 96-96z" data-tags="header-logo-left" />
<glyph unicode="&#xe602;" d="M127.62 960h768.76c70.371 0 127.62-57.137 127.62-127.62v-768.76c0-70.371-57.137-127.62-127.62-127.62h-768.76c-70.371 0-127.62 57.137-127.62 127.62v768.76c0 70.371 57.137 127.62 127.62 127.62zM864.3 832c-17.839 0-32.3-14.844-32.3-32 0-17.673 13.698-32 32.3-32h63.4c17.839 0 32.3 14.844 32.3 32 0 17.673-13.698 32-32.3 32h-63.4zM672.3 832c-17.839 0-32.3-14.844-32.3-32 0-17.673 13.698-32 32.3-32h63.4c17.839 0 32.3 14.844 32.3 32 0 17.673-13.698 32-32.3 32h-63.4zM512 768c35.346 0 64 28.654 64 64s-28.654 64-64 64c-35.346 0-64-28.654-64-64s28.654-64 64-64zM288.3 832c-17.839 0-32.3-14.844-32.3-32 0-17.673 13.698-32 32.3-32h63.4c17.839 0 32.3 14.844 32.3 32 0 17.673-13.698 32-32.3 32h-63.4zM96.3 832c-17.839 0-32.3-14.844-32.3-32 0-17.673 13.698-32 32.3-32h63.4c17.839 0 32.3 14.844 32.3 32 0 17.673-13.698 32-32.3 32h-63.4zM128.438 640c-35.588 0-64.438-29.163-64.438-63.705v-512.589c0-35.184 28.797-63.705 64.438-63.705h767.124c35.588 0 64.438 29.163 64.438 63.705v512.589c0 35.184-28.797 63.705-64.438 63.705h-767.124z" data-tags="header-logo-center" />
<glyph unicode="&#xe603;" d="M127.62 960h768.76c70.371 0 127.62-57.137 127.62-127.62v-768.76c0-70.371-57.137-127.62-127.62-127.62h-768.76c-70.371 0-127.62 57.137-127.62 127.62v768.76c0 70.371 57.137 127.62 127.62 127.62zM128.438 640c-35.588 0-64.438-29.163-64.438-63.705v-512.589c0-35.184 28.797-63.705 64.438-63.705h767.124c35.588 0 64.438 29.163 64.438 63.705v512.589c0 35.184-28.797 63.705-64.438 63.705h-767.124zM480.3 832c-17.839 0-32.3-14.844-32.3-32 0-17.673 13.698-32 32.3-32h63.4c17.839 0 32.3 14.844 32.3 32 0 17.673-13.698 32-32.3 32h-63.4zM288.3 832c-17.839 0-32.3-14.844-32.3-32 0-17.673 13.698-32 32.3-32h63.4c17.839 0 32.3 14.844 32.3 32 0 17.673-13.698 32-32.3 32h-63.4zM96.3 832c-17.839 0-32.3-14.844-32.3-32 0-17.673 13.698-32 32.3-32h63.4c17.839 0 32.3 14.844 32.3 32 0 17.673-13.698 32-32.3 32h-63.4zM864 704c53.019 0 96 42.981 96 96s-42.981 96-96 96c-53.019 0-96-42.981-96-96s42.981-96 96-96z" data-tags="header-logo-right" />
<glyph unicode="&#xe604;" d="M127.62 960h768.76c70.371 0 127.62-57.137 127.62-127.62v-768.76c0-70.371-57.137-127.62-127.62-127.62h-768.76c-70.371 0-127.62 57.137-127.62 127.62v768.76c0 70.371 57.137 127.62 127.62 127.62zM128.438 576c-35.588 0-64.438-28.564-64.438-63.843v-448.314c0-35.259 28.797-63.843 64.438-63.843h767.124c35.588 0 64.438 28.564 64.438 63.843v448.314c0 35.259-28.797 63.843-64.438 63.843h-767.124zM96.3 704c-17.839 0-32.3-14.844-32.3-32 0-17.673 13.698-32 32.3-32h63.4c17.839 0 32.3 14.844 32.3 32 0 17.673-13.698 32-32.3 32h-63.4zM288.3 704c-17.839 0-32.3-14.844-32.3-32 0-17.673 13.698-32 32.3-32h63.4c17.839 0 32.3 14.844 32.3 32 0 17.673-13.698 32-32.3 32h-63.4zM480.3 704c-17.839 0-32.3-14.844-32.3-32 0-17.673 13.698-32 32.3-32h63.4c17.839 0 32.3 14.844 32.3 32 0 17.673-13.698 32-32.3 32h-63.4zM672.3 704c-17.839 0-32.3-14.844-32.3-32 0-17.673 13.698-32 32.3-32h63.4c17.839 0 32.3 14.844 32.3 32 0 17.673-13.698 32-32.3 32h-63.4zM864.3 704c-17.839 0-32.3-14.844-32.3-32 0-17.673 13.698-32 32.3-32h63.4c17.839 0 32.3 14.844 32.3 32 0 17.673-13.698 32-32.3 32h-63.4zM128 768c35.346 0 64 28.654 64 64s-28.654 64-64 64c-35.346 0-64-28.654-64-64s28.654-64 64-64z" data-tags="header-logo-top" />
<glyph unicode="&#xe605;" d="M127.62 960h768.76c70.371 0 127.62-57.137 127.62-127.62v-768.76c0-70.371-57.137-127.62-127.62-127.62h-768.76c-70.371 0-127.62 57.137-127.62 127.62v768.76c0 70.371 57.137 127.62 127.62 127.62zM672.3 704c-17.839 0-32.3-14.844-32.3-32 0-17.673 13.698-32 32.3-32h63.4c17.839 0 32.3 14.844 32.3 32 0 17.673-13.698 32-32.3 32h-63.4zM512 768c35.346 0 64 28.654 64 64s-28.654 64-64 64c-35.346 0-64-28.654-64-64s28.654-64 64-64zM480.3 704c-17.839 0-32.3-14.844-32.3-32 0-17.673 13.698-32 32.3-32h63.4c17.839 0 32.3 14.844 32.3 32 0 17.673-13.698 32-32.3 32h-63.4zM288.3 704c-17.839 0-32.3-14.844-32.3-32 0-17.673 13.698-32 32.3-32h63.4c17.839 0 32.3 14.844 32.3 32 0 17.673-13.698 32-32.3 32h-63.4zM128.438 576c-35.588 0-64.438-28.564-64.438-63.843v-448.314c0-35.259 28.797-63.843 64.438-63.843h767.124c35.588 0 64.438 28.564 64.438 63.843v448.314c0 35.259-28.797 63.843-64.438 63.843h-767.124z" data-tags="header-logo-center-top" />
<glyph unicode="&#xe606;" d="M127.62 960h768.76c70.371 0 127.62-57.137 127.62-127.62v-768.76c0-70.371-57.137-127.62-127.62-127.62h-768.76c-70.371 0-127.62 57.137-127.62 127.62v768.76c0 70.371 57.137 127.62 127.62 127.62zM128.438 896c-35.588 0-64.438-28.797-64.438-64.438v-767.124c0-35.588 28.797-64.438 64.438-64.438h767.124c35.588 0 64.438 28.797 64.438 64.438v767.124c0 35.588-28.797 64.438-64.438 64.438h-767.124zM800.3 768c-17.839 0-32.3-14.844-32.3-32 0-17.673 13.698-32 32.3-32h63.4c17.839 0 32.3 14.844 32.3 32 0 17.673-13.698 32-32.3 32h-63.4zM608.3 768c-17.839 0-32.3-14.844-32.3-32 0-17.673 13.698-32 32.3-32h63.4c17.839 0 32.3 14.844 32.3 32 0 17.673-13.698 32-32.3 32h-63.4zM416.3 768c-17.839 0-32.3-14.844-32.3-32 0-17.673 13.698-32 32.3-32h63.4c17.839 0 32.3 14.844 32.3 32 0 17.673-13.698 32-32.3 32h-63.4zM224 640c53.019 0 96 42.981 96 96s-42.981 96-96 96c-53.019 0-96-42.981-96-96s42.981-96 96-96z" data-tags="header-fixed" />
<glyph unicode="&#xe607;" d="M694.604 73.36c-5.664-5.736-13.429-9.36-21.995-9.36h-193.219c-17.627 0-31.391 14.327-31.391 32 0 17.156 14.054 32 31.391 32h160.609v160.609c0 17.627 14.327 31.391 32 31.391 17.156 0 32-14.054 32-31.391v-193.219c0-8.712-3.5-16.481-9.174-22.11zM329.174 822.719l0.222-0.080c5.664 5.736 13.429 9.36 21.995 9.36h193.219c17.627 0 31.391-14.327 31.391-32 0-17.156-14.054-32-31.391-32h-160.609v-160.609c0-17.627-14.327-31.391-32-31.391-17.156 0-32 14.054-32 31.391v193.219c0 8.712 3.5 16.481 9.174 22.11zM319.975 960h384.049c71.18 0 127.975-57.137 127.975-127.62v-768.76c0-70.371-57.297-127.62-127.975-127.62h-384.049c-71.18 0-127.975 57.137-127.975 127.62v768.76c0 70.371 57.297 127.62 127.975 127.62zM319.81 896c-35.241 0-63.81-28.797-63.81-64.438v-767.124c0-35.588 28.994-64.438 63.81-64.438h384.38c35.241 0 63.81 28.797 63.81 64.438v767.124c0 35.588-28.994 64.438-63.81 64.438h-384.38z" data-tags="image-portrait" />
<glyph unicode="&#xe608;" d="M886.604 265.36c-5.664-5.736-13.429-9.36-21.995-9.36h-193.219c-17.627 0-31.391 14.327-31.391 32 0 17.156 14.054 32 31.391 32h160.609v160.609c0 17.627 14.327 31.391 32 31.391 17.156 0 32-14.054 32-31.391v-193.219c0-8.712-3.5-16.481-9.174-22.11zM137.174 630.719l0.222-0.080c5.664 5.736 13.429 9.36 21.995 9.36h193.219c17.627 0 31.391-14.327 31.391-32 0-17.156-14.054-32-31.391-32h-160.609v-160.609c0-17.627-14.327-31.391-32-31.391-17.156 0-32 14.054-32 31.391v193.219c0 8.712 3.5 16.481 9.174 22.11zM127.62 768h768.76c70.371 0 127.62-57.297 127.62-127.975v-384.049c0-71.18-57.137-127.975-127.62-127.975h-768.76c-70.371 0-127.62 57.297-127.62 127.975v384.049c0 71.18 57.137 127.975 127.62 127.975zM128.438 704c-35.588 0-64.438-28.994-64.438-63.81v-384.38c0-35.241 28.797-63.81 64.438-63.81h767.124c35.588 0 64.438 28.994 64.438 63.81v384.38c0 35.241-28.797 63.81-64.438 63.81h-767.124z" data-tags="image-landscape" />
<glyph unicode="&#xe609;" d="M886.604 73.36c-5.664-5.736-13.429-9.36-21.995-9.36h-193.219c-17.627 0-31.391 14.327-31.391 32 0 17.156 14.054 32 31.391 32h160.609v160.609c0 17.627 14.327 31.391 32 31.391 17.156 0 32-14.054 32-31.391v-193.219c0-8.712-3.5-16.481-9.174-22.11zM137.174 822.719l0.222-0.080c5.664 5.736 13.429 9.36 21.995 9.36h193.219c17.627 0 31.391-14.327 31.391-32 0-17.156-14.054-32-31.391-32h-160.609v-160.609c0-17.627-14.327-31.391-32-31.391-17.156 0-32 14.054-32 31.391v193.219c0 8.712 3.5 16.481 9.174 22.11zM127.62 960h768.76c70.371 0 127.62-57.137 127.62-127.62v-768.76c0-70.371-57.137-127.62-127.62-127.62h-768.76c-70.371 0-127.62 57.137-127.62 127.62v768.76c0 70.371 57.137 127.62 127.62 127.62zM128.438 896c-35.588 0-64.438-28.797-64.438-64.438v-767.124c0-35.588 28.797-64.438 64.438-64.438h767.124c35.588 0 64.438 28.797 64.438 64.438v767.124c0 35.588-28.797 64.438-64.438 64.438h-767.124z" data-tags="image-square" />
<glyph unicode="&#xe60a;" d="M886.826 73.281l-0.222 0.080c-5.664-5.736-13.429-9.36-21.995-9.36h-193.219c-17.627 0-31.391 14.327-31.391 32 0 17.156 14.054 32 31.391 32h160.609v160.609c0 17.627 14.327 31.391 32 31.391 17.156 0 32-14.054 32-31.391v-193.219c0-8.712-3.5-16.481-9.174-22.11zM137.174 822.719l0.222-0.080c5.664 5.736 13.429 9.36 21.995 9.36h193.219c17.627 0 31.391-14.327 31.391-32 0-17.156-14.054-32-31.391-32h-160.609v-160.609c0-17.627-14.327-31.391-32-31.391-17.156 0-32 14.054-32 31.391v193.219c0 8.712 3.5 16.481 9.174 22.11zM127.62 960h768.76c70.371 0 127.62-57.137 127.62-127.62v-768.76c0-70.371-57.137-127.62-127.62-127.62h-768.76c-70.371 0-127.62 57.137-127.62 127.62v768.76c0 70.371 57.137 127.62 127.62 127.62zM128.438 896c-35.588 0-64.438-28.797-64.438-64.438v-767.124c0-35.588 28.797-64.438 64.438-64.438h767.124c35.588 0 64.438 28.797 64.438 64.438v767.124c0 35.588-28.797 64.438-64.438 64.438h-767.124zM512 416c17.673 0 32 14.327 32 32s-14.327 32-32 32c-17.673 0-32-14.327-32-32s14.327-32 32-32zM704 224c17.673 0 32 14.327 32 32s-14.327 32-32 32c-17.673 0-32-14.327-32-32s14.327-32 32-32zM320 608c17.673 0 32 14.327 32 32s-14.327 32-32 32c-17.673 0-32-14.327-32-32s14.327-32 32-32zM608 320c17.673 0 32 14.327 32 32s-14.327 32-32 32c-17.673 0-32-14.327-32-32s14.327-32 32-32zM416 512c17.673 0 32 14.327 32 32s-14.327 32-32 32c-17.673 0-32-14.327-32-32s14.327-32 32-32z" data-tags="image-size" />
<glyph unicode="&#xe60b;" d="M192 447.727v256.273h640v-639.454c0-70.821-57.297-128.546-127.975-128.546h-384.049c-71.18 0-127.975 57.552-127.975 128.546v383.181zM640 896h191.842c34.99 0 64.158-28.654 64.158-64 0-35.593-28.725-64-64.158-64h-639.683c-34.99 0-64.158 28.654-64.158 64 0 35.593 28.725 64 64.158 64l191.842 0.067c0 35.603 28.922 63.933 64.6 63.933h126.801c36.225 0 64.6-28.624 64.6-63.933v-0.067z" data-tags="trash" />
<glyph unicode="&#xe60c;" d="M422.422 274.699l326.295 465.997c20.069 28.662 60.271 36.12 89.225 15.847 29.156-20.415 35.95-60.239 15.626-89.264l-366.907-523.998c-3.231-4.614-6.984-8.679-11.127-12.167-1.618-1.824-3.357-3.579-5.216-5.253-26.267-23.651-66.874-21.375-89.991 4.298l-172.087 191.122c-23.433 26.025-21.319 66.131 5.132 89.947 26.267 23.651 66.874 21.375 89.991-4.298l119.061-132.23z" data-tags="tick" />
<glyph unicode="&#xe60d;" d="M421.49 448l-225.964 225.964c-25.202 25.202-25.303 65.826-0.31 90.819 25.168 25.168 65.655 24.855 90.819-0.31l225.964-225.964 225.964 225.964c25.202 25.202 65.826 25.303 90.819 0.31 25.168-25.168 24.855-65.655-0.31-90.819l-225.964-225.964 225.964-225.964c25.202-25.202 25.303-65.826 0.31-90.819-25.168-25.168-65.655-24.855-90.819 0.31l-225.964 225.964-225.964-225.964c-25.202-25.202-65.826-25.303-90.819-0.31-25.168 25.168-24.855 65.655 0.31 90.819l225.964 225.964z" data-tags="cross" />
<glyph unicode="&#xe60e;" d="M584.562 32c11.066-19.13 31.749-32 55.438-32s44.372 12.87 55.438 32h168.54c17.685 0 32.022 14.844 32.022 32 0 17.673-14.656 32-32.022 32h-168.54c-11.066 19.13-31.749 32-55.438 32s-44.372-12.87-55.438-32h-424.54c-17.685 0-32.022-14.844-32.022-32 0-17.673 14.656-32 32.022-32h424.54zM127.62 960h768.76c70.371 0 127.62-57.137 127.62-127.62v-768.76c0-70.371-57.137-127.62-127.62-127.62h-768.76c-70.371 0-127.62 57.137-127.62 127.62v768.76c0 70.371 57.137 127.62 127.62 127.62zM128.438 896c-35.588 0-64.438-28.47-64.438-63.717v-576.566c0-35.19 28.797-63.717 64.438-63.717h767.124c35.588 0 64.438 28.47 64.438 63.717v576.566c0 35.19-28.797 63.717-64.438 63.717h-767.124zM704 544l-320 128v-256l320 128z" data-tags="video" />
<glyph unicode="&#xe60f;" d="M886.604 73.36c-5.664-5.736-13.429-9.36-21.995-9.36h-193.219c-17.627 0-31.391 14.327-31.391 32 0 17.156 14.054 32 31.391 32h160.609v160.609c0 17.627 14.327 31.391 32 31.391 17.156 0 32-14.054 32-31.391v-193.219c0-8.712-3.5-16.481-9.174-22.11zM137.174 73.281l0.222 0.080c5.664-5.736 13.429-9.36 21.995-9.36h193.219c17.627 0 31.391 14.327 31.391 32 0 17.156-14.054 32-31.391 32h-160.609v160.609c0 17.627-14.327 31.391-32 31.391-17.156 0-32-14.054-32-31.391v-193.219c0-8.712 3.5-16.481 9.174-22.11zM886.826 822.719l-0.222-0.080c-5.664 5.736-13.429 9.36-21.995 9.36h-193.219c-17.627 0-31.391-14.327-31.391-32 0-17.156 14.054-32 31.391-32h160.609v-160.609c0-17.627 14.327-31.391 32-31.391 17.156 0 32 14.054 32 31.391v193.219c0 8.712-3.5 16.481-9.174 22.11zM137.174 822.719l0.222-0.080c5.664 5.736 13.429 9.36 21.995 9.36h193.219c17.627 0 31.391-14.327 31.391-32 0-17.156-14.054-32-31.391-32h-160.609v-160.609c0-17.627-14.327-31.391-32-31.391-17.156 0-32 14.054-32 31.391v193.219c0 8.712 3.5 16.481 9.174 22.11zM127.62 960h768.76c70.371 0 127.62-57.137 127.62-127.62v-768.76c0-70.371-57.137-127.62-127.62-127.62h-768.76c-70.371 0-127.62 57.137-127.62 127.62v768.76c0 70.371 57.137 127.62 127.62 127.62zM128.438 896c-35.588 0-64.438-28.797-64.438-64.438v-767.124c0-35.588 28.797-64.438 64.438-64.438h767.124c35.588 0 64.438 28.797 64.438 64.438v767.124c0 35.588-28.797 64.438-64.438 64.438h-767.124z" data-tags="image-no-crop" />
<glyph unicode="&#xe610;" d="M127.62 960h768.76c70.371 0 127.62-57.137 127.62-127.62v-768.76c0-70.371-57.137-127.62-127.62-127.62h-768.76c-70.371 0-127.62 57.137-127.62 127.62v768.76c0 70.371 57.137 127.62 127.62 127.62zM128.438 768c-35.588 0-64.438-29.169-64.438-64.158v-639.683c0-35.434 28.797-64.158 64.438-64.158h767.124c35.588 0 64.438 29.169 64.438 64.158v639.683c0 35.434-28.797 64.158-64.438 64.158h-767.124zM928 832c17.673 0 32 14.327 32 32s-14.327 32-32 32c-17.673 0-32-14.327-32-32s14.327-32 32-32zM800 832c17.673 0 32 14.327 32 32s-14.327 32-32 32c-17.673 0-32-14.327-32-32s14.327-32 32-32zM672 832c17.673 0 32 14.327 32 32s-14.327 32-32 32c-17.673 0-32-14.327-32-32s14.327-32 32-32zM383.41 704c-35.020 0-63.41-29.163-63.41-63.705v-512.589c0-35.184 28.862-63.705 63.41-63.705h257.18c35.020 0 63.41 29.163 63.41 63.705v512.589c0 35.184-28.862 63.705-63.41 63.705h-257.18z" data-tags="layout-boxed" />
<glyph unicode="&#xe611;" d="M891.513 449.211c0.271-12.801-4.525-25.752-14.373-35.6l-202.75-202.75c-18.993-18.993-49.455-19.324-68.33-0.448-18.745 18.745-18.565 49.318 0.448 68.33l171.093 171.093-171.093 171.093c-18.993 18.993-19.324 49.455-0.448 68.33 18.745 18.745 49.318 18.565 68.33-0.448l202.75-202.75c10.173-10.173 14.992-23.637 14.373-36.849zM132.487 449.211v0c-0.619 13.211 4.2 26.675 14.373 36.849l202.75 202.75c19.013 19.013 49.585 19.193 68.33 0.448 18.876-18.876 18.544-49.338-0.448-68.33l-171.093-171.093 171.093-171.093c19.013-19.013 19.193-49.585 0.448-68.33-18.876-18.876-49.338-18.544-68.33 0.448l-202.75 202.75c-9.849 9.849-14.644 22.799-14.373 35.6zM127.62 960c-70.483 0-127.62-57.249-127.62-127.62v-768.76c0-70.483 57.249-127.62 127.62-127.62h768.76c70.483 0 127.62 57.249 127.62 127.62v768.76c0 70.483-57.249 127.62-127.62 127.62h-768.76z" data-tags="slider" />
<glyph unicode="&#xe612;" d="M127.62 960h768.76c70.371 0 127.62-57.137 127.62-127.62v-768.76c0-70.371-57.137-127.62-127.62-127.62h-768.76c-70.371 0-127.62 57.137-127.62 127.62v768.76c0 70.371 57.137 127.62 127.62 127.62zM383.705 896c-35.184 0-63.705-28.797-63.705-64.438v-767.124c0-35.588 29.163-64.438 63.705-64.438h512.589c35.184 0 63.705 28.797 63.705 64.438v767.124c0 35.588-29.163 64.438-63.705 64.438h-512.589zM800.576 768c17.355 0 31.424-14.844 31.424-32 0-17.673-14.584-32-31.424-32h-321.151c-17.355 0-31.424 14.844-31.424 32 0 17.673 14.584 32 31.424 32h321.151zM672.609 640c17.337 0 31.391-14.844 31.391-32 0-17.673-13.764-32-31.391-32h-193.219c-17.337 0-31.391 14.844-31.391 32 0 17.673 13.764 32 31.391 32h193.219zM800.576 512c17.355 0 31.424-14.844 31.424-32 0-17.673-14.584-32-31.424-32h-321.151c-17.355 0-31.424 14.844-31.424 32 0 17.673 14.584 32 31.424 32h321.151z" data-tags="advanced-layout-left" />
<glyph unicode="&#xe613;" d="M127.62 960h768.76c70.371 0 127.62-57.137 127.62-127.62v-768.76c0-70.371-57.137-127.62-127.62-127.62h-768.76c-70.371 0-127.62 57.137-127.62 127.62v768.76c0 70.371 57.137 127.62 127.62 127.62zM128.438 576c-35.588 0-64.438-28.564-64.438-63.843v-448.314c0-35.259 28.797-63.843 64.438-63.843h767.124c35.588 0 64.438 28.564 64.438 63.843v448.314c0 35.259-28.797 63.843-64.438 63.843h-767.124zM735.972 448c17.689 0 32.028-14.844 32.028-32 0-17.673-14.771-32-32.028-32h-447.944c-17.689 0-32.028 14.844-32.028 32 0 17.673 14.771 32 32.028 32h447.944zM671.781 320c17.794 0 32.219-14.844 32.219-32 0-17.673-14.906-32-32.219-32h-383.562c-17.794 0-32.219 14.844-32.219 32 0 17.673 14.906 32 32.219 32h383.562zM735.972 192c17.689 0 32.028-14.844 32.028-32 0-17.673-14.771-32-32.028-32h-447.944c-17.689 0-32.028 14.844-32.028 32 0 17.673 14.771 32 32.028 32h447.944z" data-tags="advanced-layout-top" />
<glyph unicode="&#xe614;" d="M127.62 960h768.76c70.371 0 127.62-57.137 127.62-127.62v-768.76c0-70.371-57.137-127.62-127.62-127.62h-768.76c-70.371 0-127.62 57.137-127.62 127.62v768.76c0 70.371 57.137 127.62 127.62 127.62zM127.705 896c-35.184 0-63.705-28.797-63.705-64.438v-767.124c0-35.588 29.163-64.438 63.705-64.438h512.589c35.184 0 63.705 28.797 63.705 64.438v767.124c0 35.588-29.163 64.438-63.705 64.438h-512.589zM544.576 768c17.355 0 31.424-14.844 31.424-32 0-17.673-14.584-32-31.424-32h-321.151c-17.355 0-31.424 14.844-31.424 32 0 17.673 14.584 32 31.424 32h321.151zM416.609 640c17.337 0 31.391-14.844 31.391-32 0-17.673-13.764-32-31.391-32h-193.219c-17.337 0-31.391 14.844-31.391 32 0 17.673 13.764 32 31.391 32h193.219zM544.576 512c17.355 0 31.424-14.844 31.424-32 0-17.673-14.584-32-31.424-32h-321.151c-17.355 0-31.424 14.844-31.424 32 0 17.673 14.584 32 31.424 32h321.151z" data-tags="advanced-layout-right" />
<glyph unicode="&#xe615;" d="M761.895 180.44l-236.871 566.372c-23.199 55.394-85.469 89.308-147.739 84.786-57.386 0-112.331-33.914-133.087-84.786l-238.092-566.372c-4.884-10.174-6.105-20.349-6.105-30.523 0-42.958 36.63-85.917 91.574-85.917 37.851 0 72.038 20.349 85.469 53.133l37.419 85.107h349.202l27.293-85.107c13.431-32.784 47.618-53.133 84.248-53.133 56.165 0 92.795 44.089 92.795 85.917 0 10.174-2.442 20.349-6.105 30.523zM512 355.84h-256l128 307.496 128-307.496zM1011.2 548.48v163.2c0 88.96-64.64 117.12-135.040 117.12-35.84 0-104.96-12.8-124.16-43.52-2.56-4.48-4.48-10.24-4.48-16 0-19.2 16-31.36 30.72-31.36 5.12 0 10.24 1.92 14.72 4.48 21.12 14.080 44.8 19.84 69.12 19.84 40.96 0 67.84-20.48 67.84-51.84v-41.6c-20.48 24.32-56.96 37.76-97.92 37.76-49.28 0-107.52-27.52-107.52-99.84 0-69.12 58.24-102.4 107.52-102.4 40.32 0 76.8 14.72 97.92 39.68 0-30.72 28.8-35.84 35.2-35.84h6.4c21.76 0 39.68 17.92 39.68 40.32zM929.92 586.24c-13.44-17.92-39.040-26.88-65.28-26.88-32 0-58.24 16.64-58.24 45.44 0 30.080 26.24 46.72 58.24 46.72 26.24 0 51.84-8.96 65.28-26.88v-38.4z" data-tags="font-size" />
<glyph unicode="&#xe616;" d="M0 456.064c0 0 146.126 375.936 515.981 375.936s508.019-381.555 508.019-381.555c0 0-138.575-386.445-508.224-386.445s-515.776 392.064-515.776 392.064zM512 128c176.731 0 320 143.269 320 320s-143.269 320-320 320c-176.731 0-320-143.269-320-320s143.269-320 320-320zM512 320c70.692 0 128 57.308 128 128s-57.308 128-128 128c-70.692 0-128-57.308-128-128s57.308-128 128-128z" data-tags="display" />
<glyph unicode="&#xe617;" d="M95.889 640c-17.612 0-31.889-14.844-31.889-32v0c0-17.673 14.074-32 31.889-32h832.222c17.612 0 31.889 14.844 31.889 32v0c0 17.673-14.074 32-31.889 32h-832.222zM96.546 512c-17.975 0-32.546-14.844-32.546-32v0c0-17.673 14.538-32 32.546-32h573.502c17.975 0 32.546 14.844 32.546 32v0c0 17.673-14.538 32-32.546 32h-573.502zM95.889 384c-17.612 0-31.889-14.844-31.889-32v0c0-17.673 14.074-32 31.889-32h832.222c17.612 0 31.889 14.844 31.889 32v0c0 17.673-14.074 32-31.889 32h-832.222zM96.546 256c-17.975 0-32.546-14.844-32.546-32v0c0-17.673 14.538-32 32.546-32h573.502c17.975 0 32.546 14.844 32.546 32v0c0 17.673-14.538 32-32.546 32h-573.502z" data-tags="text-left" />
<glyph unicode="&#xe618;" d="M95.889 640c-17.612 0-31.889-14.844-31.889-32v0c0-17.673 14.074-32 31.889-32h832.222c17.612 0 31.889 14.844 31.889 32v0c0 17.673-14.074 32-31.889 32h-832.222zM224.618 512c-18.014 0-32.618-14.844-32.618-32v0c0-17.673 14.57-32 32.618-32h574.765c18.014 0 32.618 14.844 32.618 32v0c0 17.673-14.57 32-32.618 32h-574.765zM95.889 384c-17.612 0-31.889-14.844-31.889-32v0c0-17.673 14.074-32 31.889-32h832.222c17.612 0 31.889 14.844 31.889 32v0c0 17.673-14.074 32-31.889 32h-832.222zM224.618 256c-18.014 0-32.618-14.844-32.618-32v0c0-17.673 14.57-32 32.618-32h574.765c18.014 0 32.618 14.844 32.618 32v0c0 17.673-14.57 32-32.618 32h-574.765z" data-tags="text-center" />
<glyph unicode="&#xe619;" d="M95.889 640c-17.612 0-31.889-14.844-31.889-32v0c0-17.673 14.074-32 31.889-32h832.222c17.612 0 31.889 14.844 31.889 32v0c0 17.673-14.074 32-31.889 32h-832.222zM352.618 512c-18.014 0-32.618-14.844-32.618-32v0c0-17.673 14.57-32 32.618-32h574.765c18.014 0 32.618 14.844 32.618 32v0c0 17.673-14.57 32-32.618 32h-574.765zM95.889 384c-17.612 0-31.889-14.844-31.889-32v0c0-17.673 14.074-32 31.889-32h832.222c17.612 0 31.889 14.844 31.889 32v0c0 17.673-14.074 32-31.889 32h-832.222zM352.618 256c-18.014 0-32.618-14.844-32.618-32v0c0-17.673 14.57-32 32.618-32h574.765c18.014 0 32.618 14.844 32.618 32v0c0 17.673-14.57 32-32.618 32h-574.765z" data-tags="text-right" />
<glyph unicode="&#xe61a;" d="M95.889 640c-17.612 0-31.889-14.844-31.889-32v0c0-17.673 14.074-32 31.889-32h832.222c17.612 0 31.889 14.844 31.889 32v0c0 17.673-14.074 32-31.889 32h-832.222zM95.889 512c-17.612 0-31.889-14.844-31.889-32v0c0-17.673 14.074-32 31.889-32h832.222c17.612 0 31.889 14.844 31.889 32v0c0 17.673-14.074 32-31.889 32h-832.222zM95.889 384c-17.612 0-31.889-14.844-31.889-32v0c0-17.673 14.074-32 31.889-32h832.222c17.612 0 31.889 14.844 31.889 32v0c0 17.673-14.074 32-31.889 32h-832.222zM95.889 256c-17.612 0-31.889-14.844-31.889-32v0c0-17.673 14.074-32 31.889-32h832.222c17.612 0 31.889 14.844 31.889 32v0c0 17.673-14.074 32-31.889 32h-832.222z" data-tags="text-justify" />
<glyph unicode="&#xe61b;" d="M63.81 704c-35.241 0-63.81-28.994-63.81-63.81v-384.38c0-35.241 28.994-63.81 63.81-63.81h384.38c35.241 0 63.81 28.994 63.81 63.81v384.38c0 35.241-28.994 63.81-63.81 63.81h-384.38zM671.424 576c-17.355 0-31.424-14.844-31.424-32 0-17.673 14.584-32 31.424-32h321.151c17.355 0 31.424 14.844 31.424 32 0 17.673-14.584 32-31.424 32h-321.151zM671.391 448c-17.337 0-31.391-14.844-31.391-32 0-17.673 13.764-32 31.391-32h193.219c17.337 0 31.391 14.844 31.391 32 0 17.673-13.764 32-31.391 32h-193.219z" data-tags="image-left" />
<glyph unicode="&#xe61c;" d="M704.19 832c35.241 0 63.81-28.994 63.81-63.81v-384.38c0-35.241-28.994-63.81-63.81-63.81h-384.38c-35.241 0-63.81 28.994-63.81 63.81v384.38c0 35.241 28.994 63.81 63.81 63.81h384.38zM672.576 256c17.355 0 31.424-14.844 31.424-32v0c0-17.673-14.584-32-31.424-32h-321.151c-17.355 0-31.424 14.844-31.424 32v0c0 17.673 14.584 32 31.424 32h321.151zM608.609 128c17.337 0 31.391-14.844 31.391-32v0c0-17.673-13.764-32-31.391-32h-193.219c-17.337 0-31.391 14.844-31.391 32v0c0 17.673 13.764 32 31.391 32h193.219z" data-tags="image-top" />
<glyph unicode="&#xe61d;" d="M960.19 704c35.241 0 63.81-28.994 63.81-63.81v-384.38c0-35.241-28.994-63.81-63.81-63.81h-384.38c-35.241 0-63.81 28.994-63.81 63.81v384.38c0 35.241 28.994 63.81 63.81 63.81h384.38zM352.576 576c17.355 0 31.424-14.844 31.424-32 0-17.673-14.584-32-31.424-32h-321.151c-17.355 0-31.424 14.844-31.424 32 0 17.673 14.584 32 31.424 32h321.151zM224.609 448c17.337 0 31.391-14.844 31.391-32 0-17.673-13.764-32-31.391-32h-193.219c-17.337 0-31.391 14.844-31.391 32 0 17.673 13.764 32 31.391 32h193.219z" data-tags="image-right" />
<glyph unicode="&#xe61e;" d="M64.056 960c-35.377 0-64.056-28.375-64.056-64.6v-126.801c0-35.677 28.456-64.6 64.056-64.6h895.888c35.377 0 64.056 28.375 64.056 64.6v126.801c0 35.677-28.456 64.6-64.056 64.6h-895.888zM64.056 192c-35.377 0-64.056-28.375-64.056-64.6v-126.801c0-35.677 28.456-64.6 64.056-64.6h895.888c35.377 0 64.056 28.375 64.056 64.6v126.801c0 35.677-28.456 64.6-64.056 64.6h-895.888zM64.056 576c-35.377 0-64.056-28.375-64.056-64.6v-126.801c0-35.677 28.456-64.6 64.056-64.6h895.888c35.377 0 64.056 28.375 64.056 64.6v126.801c0 35.677-28.456 64.6-64.056 64.6h-895.888z" data-tags="list-list" />
<glyph unicode="&#xe61f;" d="M64 960h128c35.346 0 64-28.654 64-64v-896c0-35.346-28.654-64-64-64h-128c-35.346 0-64 28.654-64 64v896c0 35.346 28.654 64 64 64zM832 960h128c35.346 0 64-28.654 64-64v-896c0-35.346-28.654-64-64-64h-128c-35.346 0-64 28.654-64 64v896c0 35.346 28.654 64 64 64zM448 960h128c35.346 0 64-28.654 64-64v-896c0-35.346-28.654-64-64-64h-128c-35.346 0-64 28.654-64 64v896c0 35.346 28.654 64 64 64z" data-tags="columns" />
<glyph unicode="&#xe620;" d="M64.6 960c-35.677 0-64.6-28.375-64.6-64.6v-126.801c0-35.677 28.375-64.6 64.6-64.6h126.801c35.677 0 64.6 28.375 64.6 64.6v126.801c0 35.677-28.375 64.6-64.6 64.6h-126.801zM64.6 576c-35.677 0-64.6-28.375-64.6-64.6v-126.801c0-35.677 28.375-64.6 64.6-64.6h126.801c35.677 0 64.6 28.375 64.6 64.6v126.801c0 35.677-28.375 64.6-64.6 64.6h-126.801zM64.6 192c-35.677 0-64.6-28.375-64.6-64.6v-126.801c0-35.677 28.375-64.6 64.6-64.6h126.801c35.677 0 64.6 28.375 64.6 64.6v126.801c0 35.677-28.375 64.6-64.6 64.6h-126.801zM448.6 960c-35.677 0-64.6-28.375-64.6-64.6v-126.801c0-35.677 28.375-64.6 64.6-64.6h126.801c35.677 0 64.6 28.375 64.6 64.6v126.801c0 35.677-28.375 64.6-64.6 64.6h-126.801zM448.6 576c-35.677 0-64.6-28.375-64.6-64.6v-126.801c0-35.677 28.375-64.6 64.6-64.6h126.801c35.677 0 64.6 28.375 64.6 64.6v126.801c0 35.677-28.375 64.6-64.6 64.6h-126.801zM448.6 192c-35.677 0-64.6-28.375-64.6-64.6v-126.801c0-35.677 28.375-64.6 64.6-64.6h126.801c35.677 0 64.6 28.375 64.6 64.6v126.801c0 35.677-28.375 64.6-64.6 64.6h-126.801zM832.6 960c-35.677 0-64.6-28.375-64.6-64.6v-126.801c0-35.677 28.375-64.6 64.6-64.6h126.801c35.677 0 64.6 28.375 64.6 64.6v126.801c0 35.677-28.375 64.6-64.6 64.6h-126.801zM832.6 576c-35.677 0-64.6-28.375-64.6-64.6v-126.801c0-35.677 28.375-64.6 64.6-64.6h126.801c35.677 0 64.6 28.375 64.6 64.6v126.801c0 35.677-28.375 64.6-64.6 64.6h-126.801zM832.6 192c-35.677 0-64.6-28.375-64.6-64.6v-126.801c0-35.677 28.375-64.6 64.6-64.6h126.801c35.677 0 64.6 28.375 64.6 64.6v126.801c0 35.677-28.375 64.6-64.6 64.6h-126.801z" data-tags="list-grid" />
<glyph unicode="&#xe621;" d="M64.6 960c-35.677 0-64.6-28.375-64.6-64.6v-126.801c0-35.677 28.375-64.6 64.6-64.6h126.801c35.677 0 64.6 28.375 64.6 64.6v126.801c0 35.677-28.375 64.6-64.6 64.6h-126.801zM64.6 576c-35.677 0-64.6-29.163-64.6-63.705v-512.589c0-35.184 28.375-63.705 64.6-63.705h126.801c35.677 0 64.6 29.163 64.6 63.705v512.589c0 35.184-28.375 63.705-64.6 63.705h-126.801zM832.6 960c-35.677 0-64.6-28.862-64.6-63.41v-257.18c0-35.020 28.375-63.41 64.6-63.41h126.801c35.677 0 64.6 28.862 64.6 63.41v257.18c0 35.020-28.375 63.41-64.6 63.41h-126.801zM832.6 448c-35.677 0-64.6-28.994-64.6-63.81v-384.38c0-35.241 28.375-63.81 64.6-63.81h126.801c35.677 0 64.6 28.994 64.6 63.81v384.38c0 35.241-28.375 63.81-64.6 63.81h-126.801zM448.6 960c-35.677 0-64.6-28.994-64.6-63.81v-384.38c0-35.241 28.375-63.81 64.6-63.81h126.801c35.677 0 64.6 28.994 64.6 63.81v384.38c0 35.241-28.375 63.81-64.6 63.81h-126.801zM448.6 320c-35.677 0-64.6-28.862-64.6-63.41v-257.18c0-35.020 28.375-63.41 64.6-63.41h126.801c35.677 0 64.6 28.862 64.6 63.41v257.18c0 35.020-28.375 63.41-64.6 63.41h-126.801z" data-tags="list-masonry" />
<glyph unicode="&#xe622;" d="M64 324.548v507.014c0 35.641 28.85 64.438 64.438 64.438h767.124c35.641 0 64.438-28.85 64.438-64.438v-597.523l-146.88 146.88c-24.919 24.919-65.623 24.618-90.241 0l-101.625-101.625-256.208 256.208c-24.879 24.879-65.668 24.426-90.093 0l-210.953-210.953zM768 576c70.692 0 128 57.308 128 128s-57.308 128-128 128c-70.692 0-128-57.308-128-128s57.308-128 128-128zM127.62 960c-70.483 0-127.62-57.249-127.62-127.62v-768.76c0-70.483 57.249-127.62 127.62-127.62h768.76c70.483 0 127.62 57.249 127.62 127.62v768.76c0 70.483-57.249 127.62-127.62 127.62h-768.76z" data-tags="photo" />
<glyph unicode="&#xe623;" d="M448 447.997v447.947c0 35.599 28.654 64.056 64 64.056 35.593 0 64-28.679 64-64.056v-447.947c35.938-0.311 64-28.58 64-63.407v-257.18c0-34.354-28.599-63.086-64-63.407v-63.947c0-35.599-28.654-64.056-64-64.056-35.593 0-64 28.679-64 64.056v63.947c-35.938 0.311-64 28.58-64 63.407v257.18c0 34.354 28.599 63.086 64 63.407v0zM64 831.997v63.947c0 35.599 28.654 64.056 64 64.056 35.593 0 64-28.679 64-64.056v-63.947c35.938-0.311 64-28.58 64-63.407v-257.18c0-34.354-28.599-63.086-64-63.407v-447.947c0-35.599-28.654-64.056-64-64.056-35.593 0-64 28.679-64 64.056v447.947c-35.938 0.311-64 28.58-64 63.407v257.18c0 34.354 28.599 63.086 64 63.407v0zM832 831.997v63.947c0 35.599 28.654 64.056 64 64.056 35.593 0 64-28.679 64-64.056v-63.947c35.938-0.311 64-28.58 64-63.407v-257.18c0-34.354-28.599-63.086-64-63.407v-447.947c0-35.599-28.654-64.056-64-64.056-35.593 0-64 28.679-64 64.056v447.947c-35.938 0.311-64 28.58-64 63.407v257.18c0 34.354 28.599 63.086 64 63.407v0zM832 768v-256h128v256h-128zM64 768v-256h128v256h-128zM448 384v-256h128v256h-128z" data-tags="settings" />
<glyph unicode="&#xe624;" d="M448 475.452l-73.124-73.124c-24.763-24.763-64.925-24.75-90.092 0.417-24.994 24.994-24.846 65.664-0.417 90.092l181.854 181.854c21.492 21.492 54.582 24.321 79.402 8.241 5.365-2.839 10.382-6.498 14.855-10.971l181.854-181.854c24.763-24.763 24.75-64.925-0.417-90.092-24.994-24.994-65.664-24.846-90.092-0.417l-75.822 75.822v-470.884c217.107 31.055 384 217.769 384 443.463 0 247.424-200.576 448-448 448s-448-200.576-448-448c0-225.694 166.893-412.408 384-443.463v470.915zM1024 448c0-282.77-229.23-512-512-512s-512 229.23-512 512c0 282.77 229.23 512 512 512s512-229.23 512-512z" data-tags="arrow-up" />
<glyph unicode="&#xe625;" d="M576 420.548l73.124 73.124c24.763 24.763 64.925 24.75 90.092-0.417 24.994-24.994 24.846-65.664 0.417-90.092l-181.854-181.854c-21.492-21.492-54.582-24.321-79.402-8.241-5.365 2.839-10.382 6.498-14.855 10.971l-181.854 181.854c-24.763 24.763-24.75 64.925 0.417 90.092 24.994 24.994 65.664 24.846 90.092 0.417l75.822-75.822v470.884c-217.107-31.055-384-217.769-384-443.463 0-247.424 200.576-448 448-448s448 200.576 448 448c0 225.694-166.893 412.408-384 443.463v-470.915zM0 448c0 282.77 229.23 512 512 512s512-229.23 512-512c0-282.77-229.23-512-512-512s-512 229.23-512 512z" data-tags="arrow-down" />
<glyph unicode="&#xe626;" d="M484.548 512l73.124 73.124c24.763 24.763 24.75 64.925-0.417 90.092-24.994 24.994-65.664 24.846-90.092 0.417l-181.854-181.854c-21.492-21.492-24.321-54.582-8.241-79.402 2.839-5.365 6.498-10.382 10.971-14.855l181.854-181.854c24.763-24.763 64.925-24.75 90.092 0.417 24.994 24.994 24.846 65.664 0.417 90.092l-75.822 75.822h470.884c-31.055-217.107-217.769-384-443.463-384-247.424 0-448 200.576-448 448s200.576 448 448 448c225.694 0 412.408-166.893 443.463-384h-470.915zM512-64c282.77 0 512 229.23 512 512s-229.23 512-512 512c-282.77 0-512-229.23-512-512s229.23-512 512-512z" data-tags="arrow-left" />
<glyph unicode="&#xe627;" d="M127.62 960h768.76c70.371 0 127.62-57.137 127.62-127.62v-768.76c0-70.371-57.137-127.62-127.62-127.62h-768.76c-70.371 0-127.62 57.137-127.62 127.62v768.76c0 70.371 57.137 127.62 127.62 127.62zM128.438 768c-35.588 0-64.438-29.169-64.438-64.158v-639.683c0-35.434 28.797-64.158 64.438-64.158h767.124c35.588 0 64.438 29.169 64.438 64.158v639.683c0 35.434-28.797 64.158-64.438 64.158h-767.124zM928 832c17.673 0 32 14.327 32 32s-14.327 32-32 32c-17.673 0-32-14.327-32-32s14.327-32 32-32zM800 832c17.673 0 32 14.327 32 32s-14.327 32-32 32c-17.673 0-32-14.327-32-32s14.327-32 32-32zM672 832c17.673 0 32 14.327 32 32s-14.327 32-32 32c-17.673 0-32-14.327-32-32s14.327-32 32-32zM192.158 704c-35.434 0-64.158-29.163-64.158-63.705v-512.589c0-35.184 29.169-63.705 64.158-63.705h639.683c35.434 0 64.158 29.163 64.158 63.705v512.589c0 35.184-29.169 63.705-64.158 63.705h-639.683z" data-tags="layout-full-screen" />
<glyph unicode="&#xe628;" d="M127.62 960h768.76c70.371 0 127.62-57.137 127.62-127.62v-768.76c0-70.371-57.137-127.62-127.62-127.62h-768.76c-70.371 0-127.62 57.137-127.62 127.62v768.76c0 70.371 57.137 127.62 127.62 127.62zM128.438 768c-35.588 0-64.438-29.169-64.438-64.158v-639.683c0-35.434 28.797-64.158 64.438-64.158h767.124c35.588 0 64.438 29.169 64.438 64.158v639.683c0 35.434-28.797 64.158-64.438 64.158h-767.124zM928 832c17.673 0 32 14.327 32 32s-14.327 32-32 32c-17.673 0-32-14.327-32-32s14.327-32 32-32zM800 832c17.673 0 32 14.327 32 32s-14.327 32-32 32c-17.673 0-32-14.327-32-32s14.327-32 32-32zM672 832c17.673 0 32 14.327 32 32s-14.327 32-32 32c-17.673 0-32-14.327-32-32s14.327-32 32-32zM192.158 576c-35.434 0-64.158-28.862-64.158-63.41v-257.18c0-35.020 29.169-63.41 64.158-63.41h639.683c35.434 0 64.158 28.862 64.158 63.41v257.18c0 35.020-29.169 63.41-64.158 63.41h-639.683z" data-tags="layout-fullwidth" />
<glyph unicode="&#xe629;" d="M704.031 704h255.913c35.599 0 64.056-28.583 64.056-63.843v-448.314c0-35.279-28.679-63.843-64.056-63.843h-895.888c-35.599 0-64.056 28.583-64.056 63.843v448.314c0 35.26 28.649 63.813 64 63.843v0c0 35.593 28.654 64 64 64 35.593 0 64-28.654 64-64h127.969c53.488 40.186 119.978 64 192.031 64s138.544-23.814 192.031-64v0zM512 192c141.385 0 256 114.615 256 256s-114.615 256-256 256c-141.385 0-256-114.615-256-256s114.615-256 256-256zM512 256c106.039 0 192 85.961 192 192s-85.961 192-192 192c-106.039 0-192-85.961-192-192s85.961-192 192-192zM896 192c35.346 0 64 28.654 64 64s-28.654 64-64 64c-35.346 0-64-28.654-64-64s28.654-64 64-64zM96.3 640c-17.839 0-32.3-14.844-32.3-32 0-17.673 13.698-32 32.3-32h63.4c17.839 0 32.3 14.844 32.3 32 0 17.673-13.698 32-32.3 32h-63.4z" data-tags="featured-image" />
<glyph unicode="&#xe62a;" d="M127.62 960h768.76c70.371 0 127.62-57.137 127.62-127.62v-768.76c0-70.371-57.137-127.62-127.62-127.62h-768.76c-70.371 0-127.62 57.137-127.62 127.62v768.76c0 70.371 57.137 127.62 127.62 127.62zM128.438 896c-35.588 0-64.438-28.797-64.438-64.438v-767.124c0-35.588 28.797-64.438 64.438-64.438h767.124c35.588 0 64.438 28.797 64.438 64.438v767.124c0 35.588-28.797 64.438-64.438 64.438h-767.124zM799.463 768c17.97 0 32.537-14.844 32.537-32 0-17.673-14.534-32-32.537-32h-573.348c-17.97 0-32.537 14.844-32.537 32 0 17.673 14.534 32 32.537 32h573.348zM587.202 640c17.668 0 31.99-14.844 31.99-32 0-17.673-14.161-32-31.99-32h-361.634c-17.668 0-31.99 14.844-31.99 32 0 17.673 14.161 32 31.99 32h361.634zM799.463 512c17.97 0 32.537-14.844 32.537-32 0-17.673-14.534-32-32.537-32h-573.348c-17.97 0-32.537 14.844-32.537 32 0 17.673 14.534 32 32.537 32h573.348z" data-tags="advanced-layout-full" />
<glyph unicode="&#xe62b;" d="M512-64c-282.77 0-512 229.23-512 512s229.23 512 512 512c282.77 0 512-229.23 512-512s-229.23-512-512-512zM512 0c247.424 0 448 200.576 448 448s-200.576 448-448 448c-247.424 0-448-200.576-448-448s200.576-448 448-448zM512 736v64c-209.673 0-352-142.327-352-352h64c0 174.327 113.673 288 288 288zM512 160v-64c209.673 0 352 142.327 352 352h-64c0-174.327-113.673-288-288-288z" data-tags="image-round" />
<glyph unicode="&#xe62c;" d="M127.62 960h768.76c70.371 0 127.62-57.137 127.62-127.62v-768.76c0-70.371-57.137-127.62-127.62-127.62h-768.76c-70.371 0-127.62 57.137-127.62 127.62v768.76c0 70.371 57.137 127.62 127.62 127.62zM127.933 768c-35.309 0-63.933-29.169-63.933-64.158v-639.683c0-35.434 28.33-64.158 63.933-64.158h64.134c35.309 0 63.933 29.169 63.933 64.158v639.683c0 35.434-28.33 64.158-63.933 64.158h-64.134zM928 832c17.673 0 32 14.327 32 32s-14.327 32-32 32c-17.673 0-32-14.327-32-32s14.327-32 32-32zM800 832c17.673 0 32 14.327 32 32s-14.327 32-32 32c-17.673 0-32-14.327-32-32s14.327-32 32-32zM672 832c17.673 0 32 14.327 32 32s-14.327 32-32 32c-17.673 0-32-14.327-32-32s14.327-32 32-32zM831.933 768c-35.309 0-63.933-29.169-63.933-64.158v-639.683c0-35.434 28.33-64.158 63.933-64.158h64.134c35.309 0 63.933 29.169 63.933 64.158v639.683c0 35.434-28.33 64.158-63.933 64.158h-64.134zM383.41 768c-35.020 0-63.41-29.169-63.41-64.158v-639.683c0-35.434 28.862-64.158 63.41-64.158h257.18c35.020 0 63.41 29.169 63.41 64.158v639.683c0 35.434-28.862 64.158-63.41 64.158h-257.18z" data-tags="sidebar-left-right" />
<glyph unicode="&#xe62d;" d="M127.62 960h768.76c70.371 0 127.62-57.137 127.62-127.62v-768.76c0-70.371-57.137-127.62-127.62-127.62h-768.76c-70.371 0-127.62 57.137-127.62 127.62v768.76c0 70.371 57.137 127.62 127.62 127.62zM127.933 768c-35.309 0-63.933-29.169-63.933-64.158v-639.683c0-35.434 28.33-64.158 63.933-64.158h64.134c35.309 0 63.933 29.169 63.933 64.158v639.683c0 35.434-28.33 64.158-63.933 64.158h-64.134zM928 832c17.673 0 32 14.327 32 32s-14.327 32-32 32c-17.673 0-32-14.327-32-32s14.327-32 32-32zM800 832c17.673 0 32 14.327 32 32s-14.327 32-32 32c-17.673 0-32-14.327-32-32s14.327-32 32-32zM672 832c17.673 0 32 14.327 32 32s-14.327 32-32 32c-17.673 0-32-14.327-32-32s14.327-32 32-32zM383.705 768c-35.184 0-63.705-29.169-63.705-64.158v-639.683c0-35.434 29.163-64.158 63.705-64.158h512.589c35.184 0 63.705 29.169 63.705 64.158v639.683c0 35.434-29.163 64.158-63.705 64.158h-512.589z" data-tags="sidebar-left" />
<glyph unicode="&#xe62e;" d="M127.62 960h768.76c70.371 0 127.62-57.137 127.62-127.62v-768.76c0-70.371-57.137-127.62-127.62-127.62h-768.76c-70.371 0-127.62 57.137-127.62 127.62v768.76c0 70.371 57.137 127.62 127.62 127.62zM127.705 768c-35.184 0-63.705-29.169-63.705-64.158v-639.683c0-35.434 29.163-64.158 63.705-64.158h512.589c35.184 0 63.705 29.169 63.705 64.158v639.683c0 35.434-29.163 64.158-63.705 64.158h-512.589zM928 832c17.673 0 32 14.327 32 32s-14.327 32-32 32c-17.673 0-32-14.327-32-32s14.327-32 32-32zM800 832c17.673 0 32 14.327 32 32s-14.327 32-32 32c-17.673 0-32-14.327-32-32s14.327-32 32-32zM672 832c17.673 0 32 14.327 32 32s-14.327 32-32 32c-17.673 0-32-14.327-32-32s14.327-32 32-32zM831.933 768c-35.309 0-63.933-29.169-63.933-64.158v-639.683c0-35.434 28.33-64.158 63.933-64.158h64.134c35.309 0 63.933 29.169 63.933 64.158v639.683c0 35.434-28.33 64.158-63.933 64.158h-64.134z" data-tags="sidebar-right" />
<glyph unicode="&#xe62f;" d="M853.333 512l170.667-128-512-384-512 384 170.667 128 341.333-256 341.333 256zM512 896l256-192-256-192-256 192 256 192z" data-tags="layers-logo" />
<glyph unicode="&#xe630;" d="M539.452 512l-73.124 73.124c-24.763 24.763-24.75 64.925 0.417 90.092 24.994 24.994 65.664 24.846 90.092 0.417l181.854-181.854c21.492-21.492 24.321-54.582 8.241-79.402-2.839-5.365-6.498-10.382-10.971-14.855l-181.854-181.854c-24.763-24.763-64.925-24.75-90.092 0.417-24.994 24.994-24.846 65.664-0.417 90.092l75.822 75.822h-470.884c31.055-217.107 217.769-384 443.463-384 247.424 0 448 200.576 448 448s-200.576 448-448 448c-225.694 0-412.408-166.893-443.463-384h470.915zM512-64c-282.77 0-512 229.23-512 512s229.23 512 512 512c282.77 0 512-229.23 512-512s-229.23-512-512-512z" data-tags="arrow-right" />
<glyph unicode="&#xe631;" d="M512-64c-282.77 0-512 229.23-512 512s229.23 512 512 512c282.77 0 512-229.23 512-512s-229.23-512-512-512zM512 0c247.424 0 448 200.576 448 448s-200.576 448-448 448c-247.424 0-448-200.576-448-448s200.576-448 448-448zM656.977 586.419c0 69.209-59.343 117.581-156.244 117.581-48.075 0-123.944-19.349-144.225-58.791-3.005-5.953-4.507-12.651-4.507-20.093 0-26.791 20.282-43.163 44.319-43.163 11.268 0 22.535 2.977 31.549 8.93 18.028 11.907 39.061 19.349 61.596 19.349 41.315 0 58.592-19.349 58.592-42.419 0-51.349-109.671-61.767-109.671-150.326 0-45.395 24.789-69.209 53.333-69.209 27.793 0 42.066 20.837 42.066 39.442 0 7.442-2.254 10.419-2.254 20.093 0 61.767 125.446 69.953 125.446 178.605zM560.075 252.279c0 32.744-27.793 60.279-60.845 60.279s-60.845-27.535-60.845-60.279c0-32.744 27.793-60.279 60.845-60.279s60.845 27.535 60.845 60.279v0z" data-tags="help" />
<glyph unicode="&#xe632;" d="M480 192h-352.38c-70.371 0-127.62 57.552-127.62 128.546v510.908c0 70.821 57.137 128.546 127.62 128.546h768.76c70.371 0 127.62-57.552 127.62-128.546v-510.908c0-70.821-57.137-128.546-127.62-128.546h-352.38v-192h255.382c18.048 0 32.618-14.327 32.618-32 0-17.156-14.603-32-32.618-32h-574.765c-18.048 0-32.618 14.327-32.618 32 0 17.156 14.603 32 32.618 32h255.382v192zM128.438 896c-35.588 0-64.438-28.994-64.438-63.81v-384.38c0-35.241 28.797-63.81 64.438-63.81h767.124c35.588 0 64.438 28.994 64.438 63.81v384.38c0 35.241-28.797 63.81-64.438 63.81h-767.124z" data-tags="desktop" />
<glyph unicode="&#xe633;" d="M383.878 896h256.243c71.129 0 127.878-57.475 127.878-128.375v-639.25c0-70.963-57.253-128.375-127.878-128.375h-256.243c-71.129 0-127.878 57.475-127.878 128.375v639.25c0 70.963 57.253 128.375 127.878 128.375zM383.41 768c-35.020 0-63.41-28.564-63.41-63.843v-448.314c0-35.259 28.862-63.843 63.41-63.843h257.18c35.020 0 63.41 28.564 63.41 63.843v448.314c0 35.259-28.862 63.843-63.41 63.843h-257.18zM463.695 844.797c-8.668 0-15.695-7.422-15.695-16 0-8.837 6.882-16 15.695-16h96.609c8.668 0 15.695 7.422 15.695 16 0 8.837-6.882 16-15.695 16h-96.609zM512 64c17.673 0 32 14.327 32 32s-14.327 32-32 32c-17.673 0-32-14.327-32-32s14.327-32 32-32z" data-tags="phone" />
<glyph unicode="&#xe634;" d="M256.546 960h510.908c70.821 0 128.546-57.137 128.546-127.62v-768.76c0-70.371-57.552-127.62-128.546-127.62h-510.908c-70.821 0-128.546 57.137-128.546 127.62v768.76c0 70.371 57.552 127.62 128.546 127.62zM255.705 832c-35.184 0-63.705-28.47-63.705-63.717v-576.566c0-35.19 29.163-63.717 63.705-63.717h512.589c35.184 0 63.705 28.47 63.705 63.717v576.566c0 35.19-29.163 63.717-63.705 63.717h-512.589zM463.695 912c-8.668 0-15.695-7.422-15.695-16 0-8.837 6.882-16 15.695-16h96.609c8.668 0 15.695 7.422 15.695 16 0 8.837-6.882 16-15.695 16h-96.609zM512 0c17.673 0 32 14.327 32 32s-14.327 32-32 32c-17.673 0-32-14.327-32-32s14.327-32 32-32z" data-tags="tablet" />
</font>
</defs>
</svg>
